999
dxfrw 0.6.3
  0
SECTION
  2
HEADER
  9
$ACADVER
  1
AC1021
  9
$DWGCODEPAGE
  3
ANSI_1252
  9
$INSBASE
 10
0
 20
0
 30
0
  9
$EXTMIN
 10
1e+20
 20
1e+20
 30
1e+20
  9
$EXTMAX
 10
-1e+20
 20
-1e+20
 30
-1e+20
  9
$LIMMIN
 10
0
 20
0
  9
$LIMMAX
 10
420
 20
297
  9
$ORTHOMODE
 70
    0
  9
$REGENMODE
 70
    1
  9
$FILLMODE
 70
    1
  9
$QTEXTMODE
 70
    0
  9
$MIRRTEXT
 70
    0
  9
$LTSCALE
 40
1
  9
$ATTMODE
 70
    0
  9
$TEXTSIZE
 40
2.5
  9
$TRACEWID
 40
15.68
  9
$TEXTSTYLE
  7
STANDARD
  9
$CLAYER
  8
0
  9
$CELTYPE
  6
BYLAYER
  9
$CECOLOR
 62
  256
  9
$CELTSCALE
 40
1
  9
$DISPSILH
 70
    0
  9
$DIMSCALE
 40
1
  9
$DIMASZ
 40
2.5
  9
$DIMEXO
 40
0.625
  9
$DIMDLI
 40
3.75
  9
$DIMRND
 40
0
  9
$DIMDLE
 40
0
  9
$DIMEXE
 40
1.25
  9
$DIMTP
 40
0
  9
$DIMTM
 40
0
  9
$DIMTXT
 40
2.5
  9
$DIMCEN
 40
2.5
  9
$DIMTSZ
 40
0
  9
$DIMTOL
 70
    0
  9
$DIMLIM
 70
    0
  9
$DIMTIH
 70
    0
  9
$DIMTOH
 70
    0
  9
$DIMSE1
 70
    0
  9
$DIMSE2
 70
    0
  9
$DIMTAD
 70
    1
  9
$DIMZIN
 70
    8
  9
$DIMBLK
  1

  9
$DIMASO
 70
    1
  9
$DIMSHO
 70
    1
  9
$DIMPOST
  1

  9
$DIMAPOST
  1

  9
$DIMALT
 70
    0
  9
$DIMALTD
 70
    3
  9
$DIMALTF
 40
0.03937
  9
$DIMLFAC
 40
1
  9
$DIMTOFL
 70
    1
  9
$DIMTVP
 40
0
  9
$DIMTIX
 70
    0
  9
$DIMSOXD
 70
    0
  9
$DIMSAH
 70
    0
  9
$DIMBLK1
  1

  9
$DIMBLK2
  1

  9
$DIMSTYLE
  2
STANDARD
  9
$DIMCLRD
 70
    0
  9
$DIMCLRE
 70
    0
  9
$DIMCLRT
 70
    0
  9
$DIMTFAC
 40
1
  9
$DIMGAP
 40
0.625
  9
$DIMJUST
 70
    0
  9
$DIMSD1
 70
    0
  9
$DIMSD2
 70
    0
  9
$DIMTOLJ
 70
    0
  9
$DIMTZIN
 70
    8
  9
$DIMALTZ
 70
    0
  9
$DIMALTTZ
 70
    0
  9
$DIMUPT
 70
    0
  9
$DIMDEC
 70
    2
  9
$DIMTDEC
 70
    2
  9
$DIMALTU
 70
    2
  9
$DIMALTTD
 70
    3
  9
$DIMTXSTY
  7
STANDARD
  9
$DIMAUNIT
 70
    0
  9
$DIMADEC
 70
    0
  9
$DIMALTRND
 40
0
  9
$DIMAZIN
 70
    0
  9
$DIMDSEP
 70
   44
  9
$DIMATFIT
 70
    3
  9
$DIMFRAC
 70
    0
  9
$DIMLDRBLK
  1
STANDARD
  9
$DIMLUNIT
 70
    2
  9
$DIMLWD
 70
   -2
  9
$DIMLWE
 70
   -2
  9
$DIMTMOVE
 70
    0
  9
$DIMFXL
 40
1
  9
$DIMFXLON
 70
    0
  9
$DIMJOGANG
 40
0.7854
  9
$DIMTFILL
 70
    0
  9
$DIMTFILLCLR
 70
    0
  9
$DIMARCSYM
 70
    0
  9
$DIMLTYPE
  6

  9
$DIMLTEX1
  6

  9
$DIMLTEX2
  6

  9
$LUNITS
 70
    2
  9
$LUPREC
 70
    4
  9
$SKETCHINC
 40
1
  9
$FILLETRAD
 40
0
  9
$AUNITS
 70
    0
  9
$AUPREC
 70
    2
  9
$MENU
  1
.
  9
$ELEVATION
 40
0
  9
$PELEVATION
 40
0
  9
$THICKNESS
 40
0
  9
$LIMCHECK
 70
    0
  9
$CHAMFERA
 40
0
  9
$CHAMFERB
 40
0
  9
$CHAMFERC
 40
0
  9
$CHAMFERD
 40
0
  9
$SKPOLY
 70
    0
  9
$USRTIMER
 70
    1
  9
$ANGBASE
 50
0
  9
$ANGDIR
 70
    0
  9
$PDMODE
 70
   34
  9
$PDSIZE
 40
0
  9
$PLINEWID
 40
0
  9
$SPLFRAME
 70
    0
  9
$SPLINETYPE
 70
    2
  9
$SPLINESEGS
 70
    8
  9
$HANDSEED
  5
20000
  9
$SURFTAB1
 70
    6
  9
$SURFTAB2
 70
    6
  9
$SURFTYPE
 70
    6
  9
$SURFU
 70
    6
  9
$SURFV
 70
    6
  9
$UCSBASE
  2

  9
$UCSNAME
  2

  9
$UCSORG
 10
0
 20
0
 30
0
  9
$UCSXDIR
 10
1
 20
0
 30
0
  9
$UCSYDIR
 10
0
 20
1
 30
0
  9
$UCSORTHOREF
  2

  9
$UCSORTHOVIEW
 70
    0
  9
$UCSORGTOP
 10
0
 20
0
 30
0
  9
$UCSORGBOTTOM
 10
0
 20
0
 30
0
  9
$UCSORGLEFT
 10
0
 20
0
 30
0
  9
$UCSORGRIGHT
 10
0
 20
0
 30
0
  9
$UCSORGFRONT
 10
0
 20
0
 30
0
  9
$UCSORGBACK
 10
0
 20
0
 30
0
  9
$PUCSBASE
  2

  9
$PUCSNAME
  2

  9
$PUCSORG
 10
0
 20
0
 30
0
  9
$PUCSXDIR
 10
1
 20
0
 30
0
  9
$PUCSYDIR
 10
0
 20
1
 30
0
  9
$PUCSORTHOREF
  2

  9
$PUCSORTHOVIEW
 70
    0
  9
$PUCSORGTOP
 10
0
 20
0
 30
0
  9
$PUCSORGBOTTOM
 10
0
 20
0
 30
0
  9
$PUCSORGLEFT
 10
0
 20
0
 30
0
  9
$PUCSORGRIGHT
 10
0
 20
0
 30
0
  9
$PUCSORGFRONT
 10
0
 20
0
 30
0
  9
$PUCSORGBACK
 10
0
 20
0
 30
0
  9
$USERI1
 70
    0
  9
$USERI2
 70
    0
  9
$USERI3
 70
    0
  9
$USERI4
 70
    0
  9
$USERI5
 70
    0
  9
$USERR1
 40
0
  9
$USERR2
 40
0
  9
$USERR3
 40
0
  9
$USERR4
 40
0
  9
$USERR5
 40
0
  9
$WORLDVIEW
 70
    1
  9
$SHADEDGE
 70
    3
  9
$SHADEDIF
 70
   70
  9
$TILEMODE
 70
    1
  9
$MAXACTVP
 70
   64
  9
$PINSBASE
 10
0
 20
0
 30
0
  9
$PLIMCHECK
 70
    0
  9
$PEXTMIN
 10
0
 20
0
 30
0
  9
$PEXTMAX
 10
0
 20
0
 30
0
  9
$PLIMMIN
 10
0
 20
0
  9
$PLIMMAX
 10
297
 20
210
  9
$UNITMODE
 70
    0
  9
$VISRETAIN
 70
    1
  9
$PLINEGEN
 70
    0
  9
$PSLTSCALE
 70
    1
  9
$TREEDEPTH
 70
 3020
  9
$CMLSTYLE
  2
Standard
  9
$CMLJUST
 70
    0
  9
$CMLSCALE
 40
20
  9
$PROXYGRAPHICS
 70
    1
  9
$MEASUREMENT
 70
    1
  9
$CELWEIGHT
370
   -1
  9
$ENDCAPS
280
    0
  9
$JOINSTYLE
280
    0
  9
$LWDISPLAY
290
    0
  9
$INSUNITS
 70
    0
  9
$HYPERLINKBASE
  1

  9
$STYLESHEET
  1

  9
$XEDIT
290
    1
  9
$CEPSNTYPE
380
    0
  9
$PSTYLEMODE
290
    1
  9
$EXTNAMES
290
    1
  9
$PSVPSCALE
 40
0
  9
$OLESTARTUP
290
    0
  9
$SORTENTS
280
  127
  9
$INDEXCTL
280
    0
  9
$HIDETEXT
280
    1
  9
$XCLIPFRAME
290
    0
  9
$HALOGAP
280
    0
  9
$OBSCOLOR
 70
  257
  9
$OBSLTYPE
280
    0
  9
$INTERSECTIONDISPLAY
280
    0
  9
$INTERSECTIONCOLOR
 70
  257
  9
$DIMASSOC
280
    1
  9
$PROJECTNAME
  1

  9
$CAMERADISPLAY
290
    0
  9
$LENSLENGTH
 40
50
  9
$CAMERAHEIGHT
 40
0
  9
$STEPSPERSEC
 40
2
  9
$STEPSIZE
 40
50
  9
$3DDWFPREC
 40
2
  9
$PSOLWIDTH
 40
5
  9
$PSOLHEIGHT
 40
80
  9
$LOFTANG1
 40
1.570796326794897
  9
$LOFTANG2
 40
1.570796326794897
  9
$LOFTMAG1
 40
0
  9
$LOFTMAG2
 40
0
  9
$LOFTPARAM
 70
    7
  9
$LOFTNORMALS
280
    1
  9
$LATITUDE
 40
1
  9
$LONGITUDE
 40
1
  9
$NORTHDIRECTION
 40
0
  9
$TIMEZONE
 70
-8000
  9
$LIGHTGLYPHDISPLAY
280
    1
  9
$TILEMODELIGHTSYNCH
280
    1
  9
$SOLIDHIST
280
    1
  9
$SHOWHIST
280
    1
  9
$DWFFRAME
280
    2
  9
$DGNFRAME
280
    0
  9
$REALWORLDSCALE
290
    1
  9
$INTERFERECOLOR
 62
    1
  9
$CSHADOW
280
    0
  9
$SHADOWPLANELOCATION
 40
0
  0
ENDSEC
  0
SECTION
  2
CLASSES
  0
ENDSEC
  0
SECTION
  2
TABLES
  0
TABLE
  2
VPORT
  5
8
330
0
100
AcDbSymbolTable
 70
    1
  0
VPORT
  5
31
330
2
100
AcDbSymbolTableRecord
100
AcDbViewportTableRecord
  2
*ACTIVE
 70
    0
 10
0
 20
0
 11
1
 21
1
 12
0.651828
 22
-0.16
 13
0
 23
0
 14
10
 24
10
 15
10
 25
10
 16
0
 26
0
 36
1
 17
0
 27
0
 37
0
 40
5.13732
 41
2.4426877
 42
50
 43
0
 44
0
 50
0
 51
0
 71
    0
 72
  100
 73
    1
 74
    3
 75
    0
 76
    0
 77
    0
 78
    0
281
    0
 65
    1
110
0
120
0
130
0
111
1
121
0
131
0
112
0
122
1
132
0
 79
    0
146
0
348
10020
 60
    7
 61
    5
292
1
282
    1
141
0
142
0
 63
  250
421
3358443
  0
ENDTAB
  0
TABLE
  2
LTYPE
  5
5
330
0
100
AcDbSymbolTable
 70
    4
  0
LTYPE
  5
14
330
5
100
AcDbSymbolTableRecord
100
AcDbLinetypeTableRecord
  2
ByBlock
 70
    0
  3

 72
   65
 73
    0
 40
0
  0
LTYPE
  5
15
330
5
100
AcDbSymbolTableRecord
100
AcDbLinetypeTableRecord
  2
ByLayer
 70
    0
  3

 72
   65
 73
    0
 40
0
  0
LTYPE
  5
16
330
5
100
AcDbSymbolTableRecord
100
AcDbLinetypeTableRecord
  2
Continuous
 70
    0
  3
Solid line
 72
   65
 73
    0
 40
0
  0
LTYPE
  5
32
330
5
100
AcDbSymbolTableRecord
100
AcDbLinetypeTableRecord
  2
DASHED
 70
    0
  3

 72
   65
 73
    2
 40
3
 49
1
 74
    0
 49
-2
 74
    0
  0
LTYPE
  5
33
330
5
100
AcDbSymbolTableRecord
100
AcDbLinetypeTableRecord
  2
DASHED
 70
    0
  3

 72
   65
 73
    2
 40
2
 49
1
 74
    0
 49
-1
 74
    0
  0
LTYPE
  5
34
330
5
100
AcDbSymbolTableRecord
100
AcDbLinetypeTableRecord
  2
DASHEDX2
 70
    0
  3

 72
   65
 73
    2
 40
3
 49
2
 74
    0
 49
-1
 74
    0
  0
LTYPE
  5
35
330
5
100
AcDbSymbolTableRecord
100
AcDbLinetypeTableRecord
  2
DASHDOT
 70
    0
  3

 72
   65
 73
    4
 40
3
 49
1
 74
    0
 49
-1
 74
    0
 49
0
 74
    0
 49
-1
 74
    0
  0
LTYPE
  5
36
330
5
100
AcDbSymbolTableRecord
100
AcDbLinetypeTableRecord
  2
DIVIDE
 70
    0
  3

 72
   65
 73
    6
 40
4
 49
1
 74
    0
 49
-1
 74
    0
 49
0
 74
    0
 49
-1
 74
    0
 49
0
 74
    0
 49
-1
 74
    0
  0
LTYPE
  5
37
330
5
100
AcDbSymbolTableRecord
100
AcDbLinetypeTableRecord
  2
DOT
 70
    0
  3

 72
   65
 73
    2
 40
1
 49
1
 74
    0
 49
0
 74
    0
  0
ENDTAB
  0
TABLE
  2
LAYER
  5
2
330
0
100
AcDbSymbolTable
 70
    1
  0
LAYER
  5
38
330
2
100
AcDbSymbolTableRecord
100
AcDbLayerTableRecord
  2
dimensions
 70
    0
 62
    7
  6
CONTINUOUS
370
   -3
390
F
  0
LAYER
  5
39
330
2
100
AcDbSymbolTableRecord
100
AcDbLayerTableRecord
  2
text
 70
    0
 62
    7
  6
CONTINUOUS
370
   -3
390
F
  0
LAYER
  5
3A
330
2
100
AcDbSymbolTableRecord
100
AcDbLayerTableRecord
  2
s001-#def-active-grp
 70
    0
 62
    7
  6
CONTINUOUS
370
   -3
390
F
  0
LAYER
  5
3B
330
2
100
AcDbSymbolTableRecord
100
AcDbLayerTableRecord
  2
s101-new-custom-style
 70
    0
 62
    7
  6
CONTINUOUS
370
   -3
390
F
  0
LAYER
  5
10
330
2
100
AcDbSymbolTableRecord
100
AcDbLayerTableRecord
  2
0
 70
    0
 62
    7
  6
CONTINUOUS
370
   -3
390
F
  0
ENDTAB
  0
TABLE
  2
STYLE
  5
3
330
0
100
AcDbSymbolTable
 70
    3
  0
STYLE
  5
3C
330
2
100
AcDbSymbolTableRecord
100
AcDbTextStyleTableRecord
  2
unicode
 70
    0
 40
0
 41
1
 50
0
 71
    0
 42
1
  3
unicode
  4

  0
STYLE
  5
3D
330
2
100
AcDbSymbolTableRecord
100
AcDbTextStyleTableRecord
  2
Standard
 70
    0
 40
0
 41
1
 50
0
 71
    0
 42
1
  3
txt
  4

  0
ENDTAB
  0
TABLE
  2
VIEW
  5
6
330
0
100
AcDbSymbolTable
 70
    0
  0
ENDTAB
  0
TABLE
  2
UCS
  5
7
330
0
100
AcDbSymbolTable
 70
    0
  0
ENDTAB
  0
TABLE
  2
APPID
  5
9
330
0
100
AcDbSymbolTable
 70
    1
  0
APPID
  5
12
330
9
100
AcDbSymbolTableRecord
100
AcDbRegAppTableRecord
  2
ACAD
 70
    0
  0
ENDTAB
  0
TABLE
  2
DIMSTYLE
  5
A
330
0
100
AcDbSymbolTable
 70
    1
100
AcDbDimStyleTable
 71
    1
  0
DIMSTYLE
105
3E
330
A
100
AcDbSymbolTableRecord
100
AcDbDimStyleTableRecord
  2
Standard
 70
    0
 40
1
 41
2.5
 42
0.625
 43
3.75
 44
1.25
 45
0
 46
0
 47
0
 48
0
140
2.5
141
2.5
142
0
143
0.03937007874015748
144
1
145
0
146
1
147
0.625
148
0
 71
    0
 72
    0
 73
    0
 74
    0
 75
    0
 76
    0
 77
    1
 78
    8
 79
    0
170
    0
171
    3
172
    1
173
    0
174
    0
175
    0
176
    0
177
    0
178
    0
179
    0
271
    2
272
    2
273
    2
274
    3
275
    0
276
    0
277
    2
278
   44
279
    0
280
    0
281
    0
282
    0
283
    0
284
    8
285
    0
286
    0
288
    0
289
    3
341

371
   -2
372
   -2
  0
ENDTAB
  0
TABLE
  2
BLOCK_RECORD
  5
1
330
0
100
AcDbSymbolTable
 70
    2
  0
BLOCK_RECORD
  5
1F
330
1
100
AcDbSymbolTableRecord
100
AcDbBlockTableRecord
  2
*Model_Space
 70
    0
280
    1
281
    0
  0
BLOCK_RECORD
  5
1E
330
1
100
AcDbSymbolTableRecord
100
AcDbBlockTableRecord
  2
*Paper_Space
 70
    0
280
    1
281
    0
  0
ENDTAB
  0
ENDSEC
  0
SECTION
  2
BLOCKS
  0
BLOCK
  5
20
330
1F
100
AcDbEntity
  8
0
100
AcDbBlockBegin
  2
*Model_Space
 70
    0
 10
0
 20
0
 30
0
  3
*Model_Space
  1

  0
ENDBLK
  5
21
330
1F
100
AcDbEntity
  8
0
100
AcDbBlockEnd
  0
BLOCK
  5
1C
330
1B
100
AcDbEntity
  8
0
100
AcDbBlockBegin
  2
*Paper_Space
 70
    0
 10
0
 20
0
 30
0
  3
*Paper_Space
  1

  0
ENDBLK
  5
1D
330
1F
100
AcDbEntity
  8
0
100
AcDbBlockEnd
  0
ENDSEC
  0
SECTION
  2
ENTITIES
  0
POLYLINE
  5
3F
100
AcDbEntity
  8
s101-new-custom-style
  6
CONTINUOUS
 62
    7
420
    0
370
   35
100
AcDb2dPolyline
 10
0
 20
0
 30
0
 70
    0
  0
VERTEX
  5
40
100
AcDbEntity
  8
s101-new-custom-style
  6
CONTINUOUS
 62
    7
420
    0
370
   35
100
AcDbVertex
100
AcDb2dVertex
 10
-125.3020920195773
 20
2.139534208792099
 30
0
  0
VERTEX
  5
41
100
AcDbEntity
  8
s101-new-custom-style
  6
CONTINUOUS
 62
    7
420
    0
370
   35
100
AcDbVertex
100
AcDb2dVertex
 10
-101.4020920195773
 20
2.139534208792099
 30
0
  0
VERTEX
  5
42
100
AcDbEntity
  8
s101-new-custom-style
  6
CONTINUOUS
 62
    7
420
    0
370
   35
100
AcDbVertex
100
AcDb2dVertex
 10
-101.4020920195773
 20
-47.8604657912079
 30
0
  0
VERTEX
  5
43
100
AcDbEntity
  8
s101-new-custom-style
  6
CONTINUOUS
 62
    7
420
    0
370
   35
100
AcDbVertex
100
AcDb2dVertex
 10
18.59790798042268
 20
-47.8604657912079
 30
0
  0
VERTEX
  5
44
100
AcDbEntity
  8
s101-new-custom-style
  6
CONTINUOUS
 62
    7
420
    0
370
   35
100
AcDbVertex
100
AcDb2dVertex
 10
18.59790798042268
 20
2.139534208792099
 30
0
  0
VERTEX
  5
45
100
AcDbEntity
  8
s101-new-custom-style
  6
CONTINUOUS
 62
    7
420
    0
370
   35
100
AcDbVertex
100
AcDb2dVertex
 10
42.49790798042268
 20
2.139534208792099
 30
0
  0
SEQEND
  5
46
100
AcDbEntity
  8
s101-new-custom-style
  6
CONTINUOUS
 62
    7
420
    0
370
   35
  0
LINE
  5
47
100
AcDbEntity
  8
s101-new-custom-style
  6
CONTINUOUS
 62
    7
420
    0
370
   35
100
AcDbLine
 10
-58.40209201957732
 20
72.1395342087921
 11
-58.40209201957732
 21
68.1395342087921
  0
LINE
  5
48
100
AcDbEntity
  8
s101-new-custom-style
  6
CONTINUOUS
 62
    7
420
    0
370
   35
100
AcDbLine
 10
-59.40209201957732
 20
67.1395342087921
 11
-125.3020920195773
 21
67.1395342087921
  0
LINE
  5
49
100
AcDbEntity
  8
s101-new-custom-style
  6
CONTINUOUS
 62
    7
420
    0
370
   35
100
AcDbLine
 10
-130.3020920195773
 20
62.1395342087921
 11
-130.3020920195773
 21
7.139534208792099
  0
LINE
  5
4A
100
AcDbEntity
  8
s101-new-custom-style
  6
CONTINUOUS
 62
    7
420
    0
370
   35
100
AcDbLine
 10
47.49790798042268
 20
7.139534208792099
 11
47.49790798042268
 21
62.1395342087921
  0
LINE
  5
4B
100
AcDbEntity
  8
s101-new-custom-style
  6
CONTINUOUS
 62
    7
420
    0
370
   35
100
AcDbLine
 10
42.49790798042268
 20
67.1395342087921
 11
-23.40209201957732
 21
67.1395342087921
  0
LINE
  5
4C
100
AcDbEntity
  8
s101-new-custom-style
  6
CONTINUOUS
 62
    7
420
    0
370
   35
100
AcDbLine
 10
-24.40209201957732
 20
68.1395342087921
 11
-24.40209201957732
 21
72.1395342087921
  0
LINE
  5
4D
100
AcDbEntity
  8
s101-new-custom-style
  6
CONTINUOUS
 62
    7
420
    0
370
   35
100
AcDbLine
 10
-29.40209201957732
 20
77.1395342087921
 11
-53.40209201957732
 21
77.1395342087921
  0
ARC
  5
4E
100
AcDbEntity
  8
s101-new-custom-style
  6
CONTINUOUS
 62
    7
420
    0
370
   35
100
AcDbCircle
 10
-53.40209201957732
 20
72.1395342087921
 40
5
100
AcDbArc
 50
90
 51
180
  0
ARC
  5
4F
100
AcDbEntity
  8
s101-new-custom-style
  6
CONTINUOUS
 62
    7
420
    0
370
   35
100
AcDbCircle
 10
-59.40209201957732
 20
68.1395342087921
 40
1
100
AcDbArc
 50
-90
 51
0
  0
ARC
  5
50
100
AcDbEntity
  8
s101-new-custom-style
  6
CONTINUOUS
 62
    7
420
    0
370
   35
100
AcDbCircle
 10
-125.3020920195773
 20
62.1395342087921
 40
5
100
AcDbArc
 50
90
 51
180
  0
ARC
  5
51
100
AcDbEntity
  8
s101-new-custom-style
  6
CONTINUOUS
 62
    7
420
    0
370
   35
100
AcDbCircle
 10
-125.3020920195773
 20
7.139534208792099
 40
5.000000000000014
100
AcDbArc
 50
180
 51
-90
  0
ARC
  5
52
100
AcDbEntity
  8
s101-new-custom-style
  6
CONTINUOUS
 62
    7
420
    0
370
   35
100
AcDbCircle
 10
42.49790798042268
 20
7.139534208792092
 40
4.999999999999993
100
AcDbArc
 50
-90
 51
8.142219984546604e-14
  0
ARC
  5
53
100
AcDbEntity
  8
s101-new-custom-style
  6
CONTINUOUS
 62
    7
420
    0
370
   35
100
AcDbCircle
 10
42.49790798042268
 20
62.13953420879211
 40
5
100
AcDbArc
 50
-8.142219984546604e-14
 51
90
  0
ARC
  5
54
100
AcDbEntity
  8
s101-new-custom-style
  6
CONTINUOUS
 62
    7
420
    0
370
   35
100
AcDbCircle
 10
-23.40209201957732
 20
68.1395342087921
 40
1
100
AcDbArc
 50
180
 51
-90
  0
ARC
  5
55
100
AcDbEntity
  8
s101-new-custom-style
  6
CONTINUOUS
 62
    7
420
    0
370
   35
100
AcDbCircle
 10
-29.40209201957732
 20
72.1395342087921
 40
5
100
AcDbArc
 50
0
 51
90
  0
ARC
  5
56
100
AcDbEntity
  8
s101-new-custom-style
  6
CONTINUOUS
 62
    7
420
    0
370
   35
100
AcDbCircle
 10
-31.40209201957732
 20
52.1395342087921
 40
2.599999999999994
100
AcDbArc
 50
-90.00000000000017
 51
0
  0
ARC
  5
57
100
AcDbEntity
  8
s101-new-custom-style
  6
CONTINUOUS
 62
    7
420
    0
370
   35
100
AcDbCircle
 10
-31.40209201957732
 20
52.1395342087921
 40
2.599999999999994
100
AcDbArc
 50
180
 51
-90
  0
ARC
  5
58
100
AcDbEntity
  8
s101-new-custom-style
  6
CONTINUOUS
 62
    7
420
    0
370
   35
100
AcDbCircle
 10
-31.40209201957733
 20
52.1395342087921
 40
2.599999999999994
100
AcDbArc
 50
89.99999999999984
 51
180
  0
ARC
  5
59
100
AcDbEntity
  8
s101-new-custom-style
  6
CONTINUOUS
 62
    7
420
    0
370
   35
100
AcDbCircle
 10
-31.40209201957732
 20
52.1395342087921
 40
2.600000000000001
100
AcDbArc
 50
0
 51
90.00000000000017
  0
ARC
  5
5A
100
AcDbEntity
  8
s101-new-custom-style
  6
CONTINUOUS
 62
    7
420
    0
370
   35
100
AcDbCircle
 10
38.79790798042266
 20
52.1395342087921
 40
1.5
100
AcDbArc
 50
-90
 51
0
  0
ARC
  5
5B
100
AcDbEntity
  8
s101-new-custom-style
  6
CONTINUOUS
 62
    7
420
    0
370
   35
100
AcDbCircle
 10
38.79790798042266
 20
52.1395342087921
 40
1.5
100
AcDbArc
 50
180
 51
-90
  0
ARC
  5
5C
100
AcDbEntity
  8
s101-new-custom-style
  6
CONTINUOUS
 62
    7
420
    0
370
   35
100
AcDbCircle
 10
38.79790798042266
 20
52.1395342087921
 40
1.5
100
AcDbArc
 50
90
 51
180
  0
ARC
  5
5D
100
AcDbEntity
  8
s101-new-custom-style
  6
CONTINUOUS
 62
    7
420
    0
370
   35
100
AcDbCircle
 10
38.79790798042266
 20
52.1395342087921
 40
1.5
100
AcDbArc
 50
0
 51
90
  0
ARC
  5
5E
100
AcDbEntity
  8
s101-new-custom-style
  6
CONTINUOUS
 62
    7
420
    0
370
   35
100
AcDbCircle
 10
-101.6020920195773
 20
52.13953420879211
 40
1.5
100
AcDbArc
 50
-90
 51
-5.428146656364401e-13
  0
ARC
  5
5F
100
AcDbEntity
  8
s101-new-custom-style
  6
CONTINUOUS
 62
    7
420
    0
370
   35
100
AcDbCircle
 10
-101.6020920195773
 20
52.13953420879211
 40
1.500000000000014
100
AcDbArc
 50
-179.9999999999995
 51
-90
  0
ARC
  5
60
100
AcDbEntity
  8
s101-new-custom-style
  6
CONTINUOUS
 62
    7
420
    0
370
   35
100
AcDbCircle
 10
-101.6020920195773
 20
52.13953420879209
 40
1.5
100
AcDbArc
 50
90
 51
179.9999999999995
  0
ARC
  5
61
100
AcDbEntity
  8
s101-new-custom-style
  6
CONTINUOUS
 62
    7
420
    0
370
   35
100
AcDbCircle
 10
-101.6020920195773
 20
52.13953420879209
 40
1.500000000000014
100
AcDbArc
 50
5.428146656364401e-13
 51
90
  0
ARC
  5
62
100
AcDbEntity
  8
s101-new-custom-style
  6
CONTINUOUS
 62
    7
420
    0
370
   35
100
AcDbCircle
 10
-121.6020920195773
 20
52.1395342087921
 40
1.5
100
AcDbArc
 50
-90
 51
0
  0
ARC
  5
63
100
AcDbEntity
  8
s101-new-custom-style
  6
CONTINUOUS
 62
    7
420
    0
370
   35
100
AcDbCircle
 10
-121.6020920195773
 20
52.1395342087921
 40
1.5
100
AcDbArc
 50
180
 51
-90
  0
ARC
  5
64
100
AcDbEntity
  8
s101-new-custom-style
  6
CONTINUOUS
 62
    7
420
    0
370
   35
100
AcDbCircle
 10
-121.6020920195773
 20
52.1395342087921
 40
1.5
100
AcDbArc
 50
90
 51
180
  0
ARC
  5
65
100
AcDbEntity
  8
s101-new-custom-style
  6
CONTINUOUS
 62
    7
420
    0
370
   35
100
AcDbCircle
 10
-121.6020920195773
 20
52.1395342087921
 40
1.5
100
AcDbArc
 50
0
 51
90
  0
ARC
  5
66
100
AcDbEntity
  8
s101-new-custom-style
  6
CONTINUOUS
 62
    7
420
    0
370
   35
100
AcDbCircle
 10
18.79790798042267
 20
32.1395342087921
 40
1.5
100
AcDbArc
 50
-90
 51
0
  0
ARC
  5
67
100
AcDbEntity
  8
s101-new-custom-style
  6
CONTINUOUS
 62
    7
420
    0
370
   35
100
AcDbCircle
 10
18.79790798042267
 20
32.1395342087921
 40
1.5
100
AcDbArc
 50
180
 51
-90
  0
ARC
  5
68
100
AcDbEntity
  8
s101-new-custom-style
  6
CONTINUOUS
 62
    7
420
    0
370
   35
100
AcDbCircle
 10
18.79790798042267
 20
32.1395342087921
 40
1.5
100
AcDbArc
 50
90
 51
180
  0
ARC
  5
69
100
AcDbEntity
  8
s101-new-custom-style
  6
CONTINUOUS
 62
    7
420
    0
370
   35
100
AcDbCircle
 10
18.79790798042267
 20
32.1395342087921
 40
1.5
100
AcDbArc
 50
0
 51
90
  0
ARC
  5
6A
100
AcDbEntity
  8
s101-new-custom-style
  6
CONTINUOUS
 62
    7
420
    0
370
   35
100
AcDbCircle
 10
18.79790798042267
 20
52.1395342087921
 40
1.5
100
AcDbArc
 50
-90
 51
0
  0
ARC
  5
6B
100
AcDbEntity
  8
s101-new-custom-style
  6
CONTINUOUS
 62
    7
420
    0
370
   35
100
AcDbCircle
 10
18.79790798042267
 20
52.1395342087921
 40
1.5
100
AcDbArc
 50
180
 51
-90
  0
ARC
  5
6C
100
AcDbEntity
  8
s101-new-custom-style
  6
CONTINUOUS
 62
    7
420
    0
370
   35
100
AcDbCircle
 10
18.79790798042267
 20
52.1395342087921
 40
1.5
100
AcDbArc
 50
90
 51
180
  0
ARC
  5
6D
100
AcDbEntity
  8
s101-new-custom-style
  6
CONTINUOUS
 62
    7
420
    0
370
   35
100
AcDbCircle
 10
18.79790798042267
 20
52.1395342087921
 40
1.5
100
AcDbArc
 50
0
 51
90
  0
ARC
  5
6E
100
AcDbEntity
  8
s101-new-custom-style
  6
CONTINUOUS
 62
    7
420
    0
370
   35
100
AcDbCircle
 10
-121.6020920195773
 20
32.1395342087921
 40
1.5
100
AcDbArc
 50
-90
 51
0
  0
ARC
  5
6F
100
AcDbEntity
  8
s101-new-custom-style
  6
CONTINUOUS
 62
    7
420
    0
370
   35
100
AcDbCircle
 10
-121.6020920195773
 20
32.1395342087921
 40
1.5
100
AcDbArc
 50
180
 51
-90
  0
ARC
  5
70
100
AcDbEntity
  8
s101-new-custom-style
  6
CONTINUOUS
 62
    7
420
    0
370
   35
100
AcDbCircle
 10
-121.6020920195773
 20
32.1395342087921
 40
1.5
100
AcDbArc
 50
90
 51
180
  0
ARC
  5
71
100
AcDbEntity
  8
s101-new-custom-style
  6
CONTINUOUS
 62
    7
420
    0
370
   35
100
AcDbCircle
 10
-121.6020920195773
 20
32.1395342087921
 40
1.5
100
AcDbArc
 50
0
 51
90
  0
ARC
  5
72
100
AcDbEntity
  8
s101-new-custom-style
  6
CONTINUOUS
 62
    7
420
    0
370
   35
100
AcDbCircle
 10
38.79790798042266
 20
32.1395342087921
 40
1.5
100
AcDbArc
 50
-90
 51
0
  0
ARC
  5
73
100
AcDbEntity
  8
s101-new-custom-style
  6
CONTINUOUS
 62
    7
420
    0
370
   35
100
AcDbCircle
 10
38.79790798042266
 20
32.1395342087921
 40
1.5
100
AcDbArc
 50
180
 51
-90
  0
ARC
  5
74
100
AcDbEntity
  8
s101-new-custom-style
  6
CONTINUOUS
 62
    7
420
    0
370
   35
100
AcDbCircle
 10
38.79790798042266
 20
32.1395342087921
 40
1.5
100
AcDbArc
 50
90
 51
180
  0
ARC
  5
75
100
AcDbEntity
  8
s101-new-custom-style
  6
CONTINUOUS
 62
    7
420
    0
370
   35
100
AcDbCircle
 10
38.79790798042266
 20
32.1395342087921
 40
1.5
100
AcDbArc
 50
0
 51
90
  0
ARC
  5
76
100
AcDbEntity
  8
s101-new-custom-style
  6
CONTINUOUS
 62
    7
420
    0
370
   35
100
AcDbCircle
 10
-101.6020920195773
 20
32.13953420879211
 40
1.5
100
AcDbArc
 50
-90
 51
-5.428146656364401e-13
  0
ARC
  5
77
100
AcDbEntity
  8
s101-new-custom-style
  6
CONTINUOUS
 62
    7
420
    0
370
   35
100
AcDbCircle
 10
-101.6020920195773
 20
32.13953420879211
 40
1.500000000000014
100
AcDbArc
 50
-179.9999999999995
 51
-90
  0
ARC
  5
78
100
AcDbEntity
  8
s101-new-custom-style
  6
CONTINUOUS
 62
    7
420
    0
370
   35
100
AcDbCircle
 10
-101.6020920195773
 20
32.13953420879209
 40
1.5
100
AcDbArc
 50
90
 51
179.9999999999995
  0
ARC
  5
79
100
AcDbEntity
  8
s101-new-custom-style
  6
CONTINUOUS
 62
    7
420
    0
370
   35
100
AcDbCircle
 10
-101.6020920195773
 20
32.13953420879209
 40
1.500000000000014
100
AcDbArc
 50
5.428146656364401e-13
 51
90
  0
ARC
  5
7A
100
AcDbEntity
  8
s101-new-custom-style
  6
CONTINUOUS
 62
    7
420
    0
370
   35
100
AcDbCircle
 10
-51.4133333372264
 20
52.14850410874387
 40
2.585618542228559
100
AcDbArc
 50
-89.99999999999984
 51
0
  0
ARC
  5
7B
100
AcDbEntity
  8
s101-new-custom-style
  6
CONTINUOUS
 62
    7
420
    0
370
   35
100
AcDbCircle
 10
-51.41333333722639
 20
52.14850410874387
 40
2.585618542228552
100
AcDbArc
 50
180
 51
-90.00000000000017
  0
ARC
  5
7C
100
AcDbEntity
  8
s101-new-custom-style
  6
CONTINUOUS
 62
    7
420
    0
370
   35
100
AcDbCircle
 10
-51.4133333372264
 20
52.14850410874387
 40
2.585618542228545
100
AcDbArc
 50
90
 51
180
  0
ARC
  5
7D
100
AcDbEntity
  8
s101-new-custom-style
  6
CONTINUOUS
 62
    7
420
    0
370
   35
100
AcDbCircle
 10
-51.4133333372264
 20
52.14850410874387
 40
2.585618542228545
100
AcDbArc
 50
0
 51
90
  0
ARC
  5
7E
100
AcDbEntity
  8
s001-#def-active-grp
  6
CONTINUOUS
 62
    7
420
    0
370
   35
100
AcDbCircle
 10
-65.70209201957732
 20
-22.86046579120791
 40
3.100000000000001
100
AcDbArc
 50
-90
 51
1.313261287830096e-13
  0
ARC
  5
7F
100
AcDbEntity
  8
s001-#def-active-grp
  6
CONTINUOUS
 62
    7
420
    0
370
   35
100
AcDbCircle
 10
-65.70209201957732
 20
-22.8604657912079
 40
3.099999999999994
100
AcDbArc
 50
180
 51
-90
  0
ARC
  5
80
100
AcDbEntity
  8
s001-#def-active-grp
  6
CONTINUOUS
 62
    7
420
    0
370
   35
100
AcDbCircle
 10
-65.70209201957732
 20
-22.8604657912079
 40
3.099999999999994
100
AcDbArc
 50
90
 51
180
  0
ARC
  5
81
100
AcDbEntity
  8
s001-#def-active-grp
  6
CONTINUOUS
 62
    7
420
    0
370
   35
100
AcDbCircle
 10
-65.70209201957732
 20
-22.86046579120789
 40
3.099999999999994
100
AcDbArc
 50
-1.313261287830096e-13
 51
90
  0
ARC
  5
82
100
AcDbEntity
  8
s001-#def-active-grp
  6
CONTINUOUS
 62
    7
420
    0
370
   35
100
AcDbCircle
 10
-41.40209201957732
 20
-22.8604657912079
 40
3.100000000000001
100
AcDbArc
 50
-90
 51
0
  0
ARC
  5
83
100
AcDbEntity
  8
s001-#def-active-grp
  6
CONTINUOUS
 62
    7
420
    0
370
   35
100
AcDbCircle
 10
-41.40209201957732
 20
-22.8604657912079
 40
3.099999999999994
100
AcDbArc
 50
180
 51
-90
  0
ARC
  5
84
100
AcDbEntity
  8
s001-#def-active-grp
  6
CONTINUOUS
 62
    7
420
    0
370
   35
100
AcDbCircle
 10
-41.40209201957732
 20
-22.8604657912079
 40
3.100000000000001
100
AcDbArc
 50
90
 51
180
  0
ARC
  5
85
100
AcDbEntity
  8
s001-#def-active-grp
  6
CONTINUOUS
 62
    7
420
    0
370
   35
100
AcDbCircle
 10
-41.40209201957732
 20
-22.8604657912079
 40
3.100000000000001
100
AcDbArc
 50
0
 51
90
  0
ARC
  5
86
100
AcDbEntity
  8
s001-#def-active-grp
  6
CONTINUOUS
 62
    7
420
    0
370
   35
100
AcDbCircle
 10
-17.10209201957733
 20
-22.8604657912079
 40
3.100000000000001
100
AcDbArc
 50
-90
 51
0
  0
ARC
  5
87
100
AcDbEntity
  8
s001-#def-active-grp
  6
CONTINUOUS
 62
    7
420
    0
370
   35
100
AcDbCircle
 10
-17.10209201957733
 20
-22.8604657912079
 40
3.099999999999994
100
AcDbArc
 50
180
 51
-90
  0
ARC
  5
88
100
AcDbEntity
  8
s001-#def-active-grp
  6
CONTINUOUS
 62
    7
420
    0
370
   35
100
AcDbCircle
 10
-17.10209201957733
 20
-22.8604657912079
 40
3.100000000000001
100
AcDbArc
 50
90
 51
180
  0
ARC
  5
89
100
AcDbEntity
  8
s001-#def-active-grp
  6
CONTINUOUS
 62
    7
420
    0
370
   35
100
AcDbCircle
 10
-17.10209201957733
 20
-22.8604657912079
 40
3.100000000000001
100
AcDbArc
 50
0
 51
90
  0
ARC
  5
8A
100
AcDbEntity
  8
s001-#def-active-grp
  6
CONTINUOUS
 62
    7
420
    0
370
   35
100
AcDbCircle
 10
-65.70209201957732
 20
-2.860465791207908
 40
3.100000000000001
100
AcDbArc
 50
-90
 51
1.313261287830096e-13
  0
ARC
  5
8B
100
AcDbEntity
  8
s001-#def-active-grp
  6
CONTINUOUS
 62
    7
420
    0
370
   35
100
AcDbCircle
 10
-65.70209201957732
 20
-2.860465791207901
 40
3.100000000000001
100
AcDbArc
 50
180
 51
-90
  0
ARC
  5
8C
100
AcDbEntity
  8
s001-#def-active-grp
  6
CONTINUOUS
 62
    7
420
    0
370
   35
100
AcDbCircle
 10
-65.70209201957732
 20
-2.860465791207901
 40
3.099999999999994
100
AcDbArc
 50
90
 51
180
  0
ARC
  5
8D
100
AcDbEntity
  8
s001-#def-active-grp
  6
CONTINUOUS
 62
    7
420
    0
370
   35
100
AcDbCircle
 10
-65.70209201957732
 20
-2.860465791207894
 40
3.099999999999995
100
AcDbArc
 50
-1.231182457340715e-13
 51
90
  0
ARC
  5
8E
100
AcDbEntity
  8
s001-#def-active-grp
  6
CONTINUOUS
 62
    7
420
    0
370
   35
100
AcDbCircle
 10
-41.40209201957732
 20
-2.860465791207901
 40
3.100000000000001
100
AcDbArc
 50
-90
 51
0
  0
ARC
  5
8F
100
AcDbEntity
  8
s001-#def-active-grp
  6
CONTINUOUS
 62
    7
420
    0
370
   35
100
AcDbCircle
 10
-41.40209201957732
 20
-2.860465791207908
 40
3.099999999999994
100
AcDbArc
 50
179.9999999999999
 51
-90
  0
ARC
  5
90
100
AcDbEntity
  8
s001-#def-active-grp
  6
CONTINUOUS
 62
    7
420
    0
370
   35
100
AcDbCircle
 10
-41.40209201957732
 20
-2.860465791207901
 40
3.099999999999994
100
AcDbArc
 50
90
 51
180
  0
ARC
  5
91
100
AcDbEntity
  8
s001-#def-active-grp
  6
CONTINUOUS
 62
    7
420
    0
370
   35
100
AcDbCircle
 10
-41.40209201957732
 20
-2.860465791207901
 40
3.100000000000001
100
AcDbArc
 50
0
 51
90
  0
ARC
  5
92
100
AcDbEntity
  8
s001-#def-active-grp
  6
CONTINUOUS
 62
    7
420
    0
370
   35
100
AcDbCircle
 10
-17.10209201957732
 20
-2.860465791207901
 40
3.100000000000001
100
AcDbArc
 50
-90
 51
0
  0
ARC
  5
93
100
AcDbEntity
  8
s001-#def-active-grp
  6
CONTINUOUS
 62
    7
420
    0
370
   35
100
AcDbCircle
 10
-17.10209201957732
 20
-2.860465791207901
 40
3.100000000000001
100
AcDbArc
 50
180
 51
-90
  0
ARC
  5
94
100
AcDbEntity
  8
s001-#def-active-grp
  6
CONTINUOUS
 62
    7
420
    0
370
   35
100
AcDbCircle
 10
-17.10209201957732
 20
-2.860465791207901
 40
3.100000000000001
100
AcDbArc
 50
90
 51
180
  0
ARC
  5
95
100
AcDbEntity
  8
s001-#def-active-grp
  6
CONTINUOUS
 62
    7
420
    0
370
   35
100
AcDbCircle
 10
-17.10209201957732
 20
-2.860465791207901
 40
3.100000000000001
100
AcDbArc
 50
0
 51
90
  0
DIMENSION
  5
96
100
AcDbEntity
  8
dimensions
  6
CONTINUOUS
 62
    6
420
16718335
370
   20
100
AcDbDimension
 10
-113.3520920195773
 20
-7.860465791207901
 30
0
 11
-113.3520920195773
 21
-7.860465791207901
 31
0
 70
   33
  1
23.90 REF
 71
    5
  3
STANDARD
 53
0
210
0
220
0
230
1
 42
23.90000000000001
100
AcDbAlignedDimension
 13
-125.3020920195773
 23
2.139534208792099
 33
0
 14
-101.4020920195773
 24
2.139534208792099
 34
0
  0
DIMENSION
  5
97
100
AcDbEntity
  8
dimensions
  6
CONTINUOUS
 62
    6
420
16718335
370
   20
100
AcDbDimension
 10
-41.40209201957732
 20
12.1395342087921
 30
0
 11
-41.40209201957732
 21
12.1395342087921
 31
0
 70
   33
  1
120.00
 71
    5
  3
STANDARD
 53
0
210
0
220
0
230
1
 42
120
100
AcDbAlignedDimension
 13
18.59790798042268
 23
2.139534208792099
 33
0
 14
-101.4020920195773
 24
2.139534208792099
 34
0
  0
DIMENSION
  5
98
100
AcDbEntity
  8
dimensions
  6
CONTINUOUS
 62
    6
420
16718335
370
   20
100
AcDbDimension
 10
28.59790798042268
 20
-22.8604657912079
 30
0
 11
28.59790798042268
 21
-22.8604657912079
 31
0
 70
   33
  1
50.00
 71
    5
  3
STANDARD
 53
0
210
0
220
0
230
1
 42
50
100
AcDbAlignedDimension
 13
18.59790798042268
 23
-47.8604657912079
 33
0
 14
18.59790798042268
 24
2.139534208792099
 34
0
  0
DIMENSION
  5
99
100
AcDbEntity
  8
dimensions
  6
CONTINUOUS
 62
    6
420
16718335
370
   20
100
AcDbDimension
 10
87.82244049390111
 20
4.633934182626518
 30
0
 11
87.82244049390111
 21
4.633934182626518
 31
0
 70
   32
  1
115.00 REF
 71
    5
  3
STANDARD
 53
0
210
0
220
0
230
1
 42
-115
100
AcDbAlignedDimension
 13
18.59790798042268
 23
-47.8604657912079
 33
0
 14
42.49790798042268
 24
67.1395342087921
 34
0
 50
270
100
AcDbRotatedDimension
  0
DIMENSION
  5
9A
100
AcDbEntity
  8
dimensions
  6
CONTINUOUS
 62
    6
420
16718335
370
   20
100
AcDbDimension
 10
-125.3020920195773
 20
2.139534208792099
 30
0
 11
-125.3020920195773
 21
7.139534208792099
 31
0
 70
   34
  1
90°
 71
    5
  3
STANDARD
 53
0
210
0
220
0
230
1
 42
1.570796326794897
100
AcDb2LineAngularDimension
 13
-125.3020920195773
 23
7.139534208792099
 33
0
 14
-130.3020920195773
 24
7.139534208792099
 34
0
 15
-125.3020920195773
 25
7.139534208792099
 35
0
 16
-125.3020920195773
 26
7.139534208792099
 36
0
  0
DIMENSION
  5
9B
100
AcDbEntity
  8
dimensions
  6
CONTINUOUS
 62
    6
420
16718335
370
   20
100
AcDbDimension
 10
47.49790798042268
 20
7.139534208792099
 30
0
 11
42.49790798042268
 21
7.139534208792099
 31
0
 70
   34
  1
90°
 71
    5
  3
STANDARD
 53
0
210
0
220
0
230
1
 42
1.570796326794897
100
AcDb2LineAngularDimension
 13
42.49790798042268
 23
7.139534208792099
 33
0
 14
42.49790798042268
 24
2.139534208792099
 34
0
 15
42.49790798042268
 25
7.139534208792099
 35
0
 16
42.49790798042268
 26
7.139534208792099
 36
0
  0
DIMENSION
  5
9C
100
AcDbEntity
  8
dimensions
  6
CONTINUOUS
 62
    6
420
16718335
370
   20
100
AcDbDimension
 10
-111.4020920195773
 20
-22.8604657912079
 30
0
 11
-111.4020920195773
 21
-22.8604657912079
 31
0
 70
   33
  1
50.00 REF
 71
    5
  3
STANDARD
 53
0
210
0
220
0
230
1
 42
50
100
AcDbAlignedDimension
 13
-101.4020920195773
 23
2.139534208792099
 33
0
 14
-101.4020920195773
 24
-47.8604657912079
 34
0
  0
DIMENSION
  5
9D
100
AcDbEntity
  8
dimensions
  6
CONTINUOUS
 62
    6
420
16718335
370
   20
100
AcDbDimension
 10
30.54790798042268
 20
-10.28286589587022
 30
0
 11
30.54790798042268
 21
-10.28286589587022
 31
0
 70
   33
  1
23.90 REF
 71
    5
  3
STANDARD
 53
0
210
0
220
0
230
1
 42
23.90000000000001
100
AcDbAlignedDimension
 13
18.59790798042268
 23
2.139534208792099
 33
0
 14
42.49790798042268
 24
2.139534208792099
 34
0
  0
DIMENSION
  5
9E
100
AcDbEntity
  8
dimensions
  6
CONTINUOUS
 62
    6
420
16718335
370
   20
100
AcDbDimension
 10
-115.2687589598823
 20
58.97286757092947
 30
0
 11
-115.2687589598823
 21
58.97286757092947
 31
0
 70
   32
  1
15.00 REF
 71
    5
  3
STANDARD
 53
0
210
0
220
0
230
1
 42
15
100
AcDbAlignedDimension
 13
-121.6020920195773
 23
52.1395342087921
 33
0
 14
-115.2687589598823
 24
67.1395342087921
 34
0
 50
90
100
AcDbRotatedDimension
  0
DIMENSION
  5
9F
100
AcDbEntity
  8
dimensions
  6
CONTINUOUS
 62
    6
420
16718335
370
   20
100
AcDbDimension
 10
-114.6020923220196
 20
17.80620084665474
 30
0
 11
-114.6020923220196
 21
17.80620084665474
 31
0
 70
   32
  1
30.00 REF
 71
    5
  3
STANDARD
 53
0
210
0
220
0
230
1
 42
-30
100
AcDbAlignedDimension
 13
-121.6020920195773
 23
32.1395342087921
 33
0
 14
-114.6020923220196
 24
2.139534208792099
 34
0
 50
90
100
AcDbRotatedDimension
  0
DIMENSION
  5
A0
100
AcDbEntity
  8
dimensions
  6
CONTINUOUS
 62
    6
420
16718335
370
   20
100
AcDbDimension
 10
-41.40209201957732
 20
-35.3604657912079
 30
0
 11
-41.40209201957732
 21
-35.3604657912079
 31
0
 70
   32
  1
25.00
 71
    5
  3
STANDARD
 53
0
210
0
220
0
230
1
 42
-25
100
AcDbAlignedDimension
 13
-41.40209201957732
 23
-22.8604657912079
 33
0
 14
-41.40209201957732
 24
-47.8604657912079
 34
0
 50
90
100
AcDbRotatedDimension
  0
DIMENSION
  5
A1
100
AcDbEntity
  8
dimensions
  6
CONTINUOUS
 62
    6
420
16718335
370
   20
100
AcDbDimension
 10
-50.25700957236501
 20
49.83585657902109
 30
0
 11
-48.55355555944862
 21
46.42894855318831
 31
0
 70
   35
  1
⌀5.17 REF
 71
    5
  3
STANDARD
 53
0
210
0
220
0
230
1
 42
5.171237084457096
100
AcDbDiametricDimension
 15
-52.56965710208779
 25
54.46115163846665
 35
0
 40
0
  0
DIMENSION
  5
A2
100
AcDbEntity
  8
dimensions
  6
CONTINUOUS
 62
    6
420
16718335
370
   20
100
AcDbDimension
 10
-29.34286550686529
 20
50.55221377190991
 30
0
 11
-23.32742535291066
 21
45.91531198656988
 31
0
 70
   35
  1
⌀5.20 REF
 71
    5
  3
STANDARD
 53
0
210
0
220
0
230
1
 42
5.2
100
AcDbDiametricDimension
 15
-33.46131853228935
 25
53.72685464567429
 35
0
 40
0
  0
DIMENSION
  5
A3
100
AcDbEntity
  8
dimensions
  6
CONTINUOUS
 62
    6
420
16718335
370
   20
100
AcDbDimension
 10
-100.5241888069274
 20
51.09640206751801
 30
0
 11
-96.38720313068843
 21
47.09286754212543
 31
0
 70
   35
  1
⌀3.00 REF
 71
    5
  3
STANDARD
 53
0
210
0
220
0
230
1
 42
3
100
AcDbDiametricDimension
 15
-102.6799952322272
 25
53.18266635006619
 35
0
 40
0
  0
DIMENSION
  5
A4
100
AcDbEntity
  8
dimensions
  6
CONTINUOUS
 62
    6
420
16718335
370
   20
100
AcDbDimension
 10
-128.497683473545
 20
3.293991950627614
 30
0
 11
-135.2272031306885
 21
-4.804243568985683
 31
0
 70
   35
  1
⌀10.00 REF
 71
    5
  3
STANDARD
 53
0
210
0
220
0
230
1
 42
10
100
AcDbDiametricDimension
 15
-122.1065005656097
 25
10.98507646695658
 35
0
 40
0
  0
DIMENSION
  5
A5
100
AcDbEntity
  8
dimensions
  6
CONTINUOUS
 62
    6
420
16718335
370
   20
100
AcDbDimension
 10
-127.1334161751176
 20
66.79208746881338
 30
0
 11
-131.5263142417996
 21
77.95242309768099
 31
0
 70
   35
  1
⌀10.00 REF
 71
    5
  3
STANDARD
 53
0
210
0
220
0
230
1
 42
10.00000000000001
100
AcDbDiametricDimension
 15
-123.470767864037
 25
57.48698094877082
 35
0
 40
0
  0
DIMENSION
  5
A6
100
AcDbEntity
  8
dimensions
  6
CONTINUOUS
 62
    6
420
16718335
370
   20
100
AcDbDimension
 10
-65.53013495874751
 20
-25.95569288614467
 30
0
 11
-65.6384005647962
 21
-24.00691197726819
 31
0
 70
   35
  1
⌀6.20
 71
    5
  3
STANDARD
 53
0
210
0
220
0
230
1
 42
6.2
100
AcDbDiametricDimension
 15
-65.87404908040713
 25
-19.76523869627112
 35
0
 40
0
  0
DIMENSION
  5
A7
100
AcDbEntity
  8
dimensions
  6
CONTINUOUS
 62
    6
420
16718335
370
   20
100
AcDbDimension
 10
-21.96963254091913
 20
-12.8604657912079
 30
0
 11
-21.96963254091913
 21
-12.8604657912079
 31
0
 70
   33
  1
20.00
 71
    5
  3
STANDARD
 53
0
210
0
220
0
230
1
 42
20
100
AcDbAlignedDimension
 13
-17.10209201957732
 23
-2.860465791207901
 33
0
 14
-17.10209201957733
 24
-22.8604657912079
 34
0
  0
DIMENSION
  5
A8
100
AcDbEntity
  8
dimensions
  6
CONTINUOUS
 62
    6
420
16718335
370
   20
100
AcDbDimension
 10
-154.1690266001367
 20
35.64886758573473
 30
0
 11
-154.1690266001367
 21
35.64886758573473
 31
0
 70
   33
  1
65.00
 71
    5
  3
STANDARD
 53
0
210
0
220
0
230
1
 42
65
100
AcDbAlignedDimension
 13
-125.3020920195773
 23
67.1395342087921
 33
0
 14
-125.3020920195773
 24
2.139534208792099
 34
0
  0
DIMENSION
  5
A9
100
AcDbEntity
  8
dimensions
  6
CONTINUOUS
 62
    6
420
16718335
370
   20
100
AcDbDimension
 10
66.64217672289213
 20
21.53393418262652
 30
0
 11
66.64217672289213
 21
21.53393418262652
 31
0
 70
   32
  1
90.00 REF
 71
    5
  3
STANDARD
 53
0
210
0
220
0
230
1
 42
-90
100
AcDbAlignedDimension
 13
18.59790798042268
 23
-22.8604657912079
 33
0
 14
42.49790798042268
 24
67.1395342087921
 34
0
 50
270
100
AcDbRotatedDimension
  0
DIMENSION
  5
AA
100
AcDbEntity
  8
dimensions
  6
CONTINUOUS
 62
    6
420
16718335
370
   20
100
AcDbDimension
 10
-53.84024290027455
 20
-14.43205253081418
 30
0
 11
-53.84024290027455
 21
-14.43205253081418
 31
0
 70
   33
  1
24.30 REF
 71
    5
  3
STANDARD
 53
0
210
0
220
0
230
1
 42
24.3
100
AcDbAlignedDimension
 13
-65.70209201957732
 23
-22.8604657912079
 33
0
 14
-41.40209201957732
 24
-22.8604657912079
 34
0
  0
DIMENSION
  5
AB
100
AcDbEntity
  8
dimensions
  6
CONTINUOUS
 62
    6
420
16718335
370
   20
100
AcDbDimension
 10
-54.44835667379415
 20
-7.015070475736074
 30
0
 11
-54.44835667379415
 21
-7.015070475736074
 31
0
 70
   33
  1
30.50
 71
    5
  3
STANDARD
 53
0
210
0
220
0
230
1
 42
30.5
100
AcDbAlignedDimension
 13
-68.80209201957732
 23
-10.45075165023392
 33
0
 14
-38.30209201957732
 24
-10.45075165023392
 34
0
  0
ENDSEC
  0
SECTION
  2
OBJECTS
  0
DICTIONARY
  5
C
330
0
100
AcDbDictionary
281
    1
  3
ACAD_GROUP
350
D
  0
DICTIONARY
  5
D
330
C
100
AcDbDictionary
281
    1
  0
ENDSEC
  0
EOF
